Register on the forum now to remove ALL ads + popups + get access to tons of hidden content for members only!
vintage erotica forum vintage erotica forum vintage erotica forum
vintage erotica forum

Go Back   Vintage Erotica Forums > Classic Models > Softcore Models

Follow Vintage Erotica Forum on Twitter
Our Live Cams Meet Our Girls Register FAQ Members List Calendar Mark Forums Read

Notices
Softcore Models Playmates, Page 3 girls, magazine and film nude models that started their career in 1995 or before.


Reply
 
Thread Tools Display Modes
Old 09-27-2010, 05:48 AM   #81
Alise77
Member
 
Alise77's Avatar
 
Join Date: Mar 2010
Posts: 58
Alise77 2500+Alise77 2500+Alise77 2500+Alise77 2500+Alise77 2500+Alise77 2500+Alise77 2500+Alise77 2500+Alise77 2500+Alise77 2500+Alise77 2500+
Default Cory Lane - Stocking Foot Tease


















Dead link removed

Last edited by Alise77; 09-27-2010 at 05:59 AM.. Reason: added more pictures
Alise77 is offline   Reply With Quote
Old 09-27-2010, 07:42 AM   #82
Alise77
Member
 
Alise77's Avatar
 
Join Date: Mar 2010
Posts: 58
Alise77 2500+Alise77 2500+Alise77 2500+Alise77 2500+Alise77 2500+Alise77 2500+Alise77 2500+Alise77 2500+Alise77 2500+Alise77 2500+Alise77 2500+
Default Cory Lane - Bare Wrinkled Soles











Dead link removed
Alise77 is offline   Reply With Quote
Old 10-08-2010, 06:35 AM   #83
marc7071
Member
 
Join Date: Aug 2010
Posts: 31
marc7071 1000+marc7071 1000+marc7071 1000+marc7071 1000+marc7071 1000+marc7071 1000+marc7071 1000+marc7071 1000+marc7071 1000+marc7071 1000+marc7071 1000+
Default

Quote:
Originally Posted by theminister View Post
A few years ago I saw a set of pics with Cory and another woman. The woman was fucking Cory with a strapon. The hottest pics I ever saw of her, but I cannot find them.
Quote:
Originally Posted by finnssss View Post
Well...after figuring out who the other chick was, Isabella Camille, I did some digging and....




I just uploaded the full set in a zip file. I left out previews since there are plenty of them in earlier posts already. Full set has 170 pics in total. I've found this set on multiple sites. Usually listed with Isabella's sets. Hope everyone enjoys.


Dead link removed
marc7071 is offline   Reply With Quote
Old 12-09-2010, 04:16 AM   #84
Alan DeMoss
Vintage Member
 
Join Date: Mar 2008
Posts: 1,129
Alan DeMoss 175000+Alan DeMoss 175000+Alan DeMoss 175000+Alan DeMoss 175000+Alan DeMoss 175000+Alan DeMoss 175000+Alan DeMoss 175000+Alan DeMoss 175000+Alan DeMoss 175000+Alan DeMoss 175000+Alan DeMoss 175000+
Default

[Referred here from the Teresa Langley thread.]
Alan DeMoss is offline   Reply With Quote
Old 03-06-2011, 08:58 PM   #85
Wendigo
Super Moderator
 
Wendigo's Avatar
 
Join Date: Sep 2007
Location: Blighty
Posts: 13,685
Wendigo 750000+Wendigo 750000+Wendigo 750000+Wendigo 750000+Wendigo 750000+Wendigo 750000+Wendigo 750000+Wendigo 750000+Wendigo 750000+Wendigo 750000+Wendigo 750000+
Default

Also known as Teresa Politi
http://www.imdb.com/name/nm0486548/
Born: August 7, 1965 in Chattanooga, Tennessee, USA

Just a couple of pics from Femme Fatales
Wendigo is online now   Reply With Quote
Old 05-15-2011, 02:14 PM   #86
Fabrizio
Former Staff
 
Fabrizio's Avatar
 
Join Date: Oct 2008
Location: Italia
Posts: 10,792
Fabrizio 1000000+Fabrizio 1000000+Fabrizio 1000000+Fabrizio 1000000+Fabrizio 1000000+Fabrizio 1000000+Fabrizio 1000000+Fabrizio 1000000+Fabrizio 1000000+Fabrizio 1000000+Fabrizio 1000000+
Default

Various



From PB

__________________
My scans: Playboy Italy & Playmen.

Please do not use PimpAndHost for your posts
Fabrizio is offline   Reply With Quote
Old 06-25-2011, 08:45 AM   #87
Alise77
Member
 
Alise77's Avatar
 
Join Date: Mar 2010
Posts: 58
Alise77 2500+Alise77 2500+Alise77 2500+Alise77 2500+Alise77 2500+Alise77 2500+Alise77 2500+Alise77 2500+Alise77 2500+Alise77 2500+Alise77 2500+
Default Cory Lane & Isabella Janacek - Foot Worship

Dead link removed




Teresa Langley & Isabella Camille



Last edited by Alise77; 08-16-2011 at 09:23 AM.. Reason: Remove big thumb
Alise77 is offline   Reply With Quote
Old 09-16-2011, 08:20 AM   #88
Alise77
Member
 
Alise77's Avatar
 
Join Date: Mar 2010
Posts: 58
Alise77 2500+Alise77 2500+Alise77 2500+Alise77 2500+Alise77 2500+Alise77 2500+Alise77 2500+Alise77 2500+Alise77 2500+Alise77 2500+Alise77 2500+
Default Cory Lane, Noelle & Stevi Conrad - Seduction (1996)

All credit to original poster Moltshun

Video:80.4 МB
Length:00:09:34



DOWNLOAD:
Alise77 is offline   Reply With Quote
Old 09-16-2011, 08:29 AM   #89
Alise77
Member
 
Alise77's Avatar
 
Join Date: Mar 2010
Posts: 58
Alise77 2500+Alise77 2500+Alise77 2500+Alise77 2500+Alise77 2500+Alise77 2500+Alise77 2500+Alise77 2500+Alise77 2500+Alise77 2500+Alise77 2500+
Default Exposed: TV's Lifeguard Babes (1996) - [DVD Rip]

All credit to original poster GailFan

Nude modeling video featuring some actresses who have appeared in Baywatch. Features Cory Lane (aka Teresa Langley), Lily Acain, Teana Lucas, Traci Bingham, Shari Echert, Azalea Davila, Lori Morrissey (although I think she gives a different name in her PTC?) and Tonya Poole (who also hosts). Contains mixed aspect ratio.
Technical Info:

Duration: 00:54:03.20, start: 0.000000, bitrate: 1741 kb/s
Stream #0.0: Video: mpeg4, yuv420p, 704x464 [PAR 29:33 DAR 4:3], 29.97 tb(r)
Stream #0.1: Audio: mp2, 44100 Hz, stereo, s16, 128 kb/s

Total filesize: 705,822,476 bytes
MD5 checksum: d489baf23cb577e591c2b2b76fa72e05

(Created with FFMpeg with the 4cc set as XVID for compatibility)

Previews:






Dead links removed

Download all parts and join with HJSplit

Clicking on the links will open a page of links to multiple fileservers. All should be compatible, even with the old set of depositfiles links.
Alise77 is offline   Reply With Quote
Old 09-20-2011, 05:23 AM   #90
Alise77
Member
 
Alise77's Avatar
 
Join Date: Mar 2010
Posts: 58
Alise77 2500+Alise77 2500+Alise77 2500+Alise77 2500+Alise77 2500+Alise77 2500+Alise77 2500+Alise77 2500+Alise77 2500+Alise77 2500+Alise77 2500+
Default Digital Desire as Ronda.....Cory lane

She has been listed as Corey Lane, Tammi, Teresa Langley in Playboy and in TV and Teresa Politi in TV and non-nude modeling and Cory Lane in almost all other foot fetish and bondage this is a new one, Does anyone have this set?

Alise77 is offline   Reply With Quote
Reply

Thread Tools
Display Modes

Posting Rules
You may not post new threads
You may not post replies
You may not post attachments
You may not edit your posts

BB code is On
Smilies are On
[IMG] code is On
HTML code is Off

Forum Jump




All times are GMT. The time now is 03:54 PM.